<?xml version="1.0" standalone="no"?>
<!DOCTYPE svg PUBLIC "-//W3C//DTD SVG 1.1//EN" "http://www.w3.org/Graphics/SVG/1.1/DTD/svg11.dtd" >
<svg xmlns="http://www.w3.org/2000/svg">
  <metadata>Created by iconfont</metadata>
  <defs>
  <font id="aiper" horiz-adv-x="1024">
    <font-face
      font-family="aiper"
      font-weight="400"
      font-stretch="normal"
      units-per-em="1024"
      ascent="896"
      descent="-128"
    />
      <missing-glyph />
      
      <glyph glyph-name="packUp" unicode="&#58909;" d="M9103.42656 22.016c-71.68-96.256-169.472-150.016-271.36-150.016H384.06656c-101.888 0-199.68 53.76-271.36 150.016A609.28 609.28 0 0 0 0.06656 384C0.06656 519.68 40.51456 650.24 112.70656 745.984 184.38656 842.24 281.66656 896 384.06656 896h8448c101.888 0 199.68-53.76 271.36-150.016 72.192-95.744 112.64-226.304 112.64-361.984 0-135.68-40.448-266.24-112.64-361.984z"  horiz-adv-x="9216" />
      
      <glyph glyph-name="unfold" unicode="&#58910;" d="M1011.484444 353.848889a42.666667 42.666667 0 0 0-30.151111-12.515556h-426.666666v-426.666666a42.666667 42.666667 0 1 0-85.333334 0v426.666666H42.666667a42.666667 42.666667 0 0 0 0 85.333334h426.666666V853.333333a42.666667 42.666667 0 0 0 85.333334 0v-426.666666h426.666666a42.666667 42.666667 0 0 0 30.151111-72.817778z"  horiz-adv-x="1024" />
      
      <glyph glyph-name="indicate-arrow" unicode="&#58908;" d="M1191.850667 335.701333a68.266667 68.266667 0 0 1 0 96.597334L757.504 866.645333a68.266667 68.266667 0 1 1-96.597333-96.426666L1047.04 384l-386.133333-386.133333a68.266667 68.266667 0 0 1 96.512-96.597334l434.432 434.432zM51.370667 315.733333h1092.266666V452.266667H51.370667v-136.533334z"  horiz-adv-x="1280" />
      
      <glyph glyph-name="video-play-circle" unicode="&#58907;" d="M921.6 480.768c74.472727-43.008 74.472727-150.481455 0-193.489455L251.345455-99.700364c-74.472727-43.008-167.563636 10.752-167.563637 96.721455V770.978909C83.781818 856.994909 176.872727 910.708364 251.345455 867.746909l670.254545-386.978909z"  horiz-adv-x="1024" />
      
      <glyph glyph-name="dam" unicode="&#58904;" d="M13.408-66.56L161.728 824.32h237.632v-150.208l15.072 10.24c16.96 11.072 36.8 16.96 57.088 16.96 23.072 0 44.704-7.328 62.912-21.12l38.912-29.568a46.624 46.624 0 0 1 56.704 0l38.976 29.536a105.056 105.056 0 0 0 63.68 21.28c23.136 0 45.12-7.36 63.616-21.28l39.008-29.536a47.2 47.2 0 0 1 56.768 0l38.976 29.504c17.664 13.376 38.592 11.072 60.576 21.312h0.896a28.992 28.992 0 0 0 29.184-28.256 28.992 28.992 0 0 0-28.288-30.048c-9.76-0.32-19.168-3.648-26.944-9.504l-39.072-29.6a104.608 104.608 0 0 0-63.712-21.312c-23.04 0-45.568 7.552-63.712 21.312l-39.04 29.536a46.816 46.816 0 0 1-56.768 0l-38.976-29.536a106.112 106.112 0 0 0-63.744-21.344c-23.232 0-45.216 7.36-63.52 21.312l-39.04 29.568a47.008 47.008 0 0 1-28.384 9.472c-10.304 0-19.296-3.264-27.52-9.44L399.36 599.904v-83.776l14.976 10.176a104.352 104.352 0 0 0 56.992 16.864c23.136 0 44.768-7.328 62.944-21.12l38.944-29.6a47.04 47.04 0 0 1 56.64 0l39.04 29.568a105.12 105.12 0 0 0 63.648 21.28c23.136 0 45.152-7.36 63.648-21.28l38.976-29.568a47.2 47.2 0 0 1 56.768 0l39.04 26.624c17.856 13.568 39.072 18.528 61.408 18.528 16.448 0 29.44-9.888 29.696-25.632 0.32-16.032-12.544-27.936-28.608-28.32-9.92-0.16-19.424-2.752-27.392-8.864l-38.976-29.12a104.544 104.544 0 0 0-63.68-21.152c-23.04 0-45.568 7.68-63.712 21.408l-39.04 29.6a46.848 46.848 0 0 1-56.768 0l-38.976-29.504a104.64 104.64 0 0 0-63.68-21.376 104.64 104.64 0 0 0-63.616 21.376l-39.04 29.536a47.008 47.008 0 0 1-28.352 9.472c-10.304 0-19.2-3.264-27.424-9.408l-43.456-33.728v-83.776l14.848 10.176a104.16 104.16 0 0 0 56.96 16.864c23.072 0 44.704-7.328 62.912-21.12l38.912-29.6a46.56 46.56 0 0 1 56.672 0l38.976 29.568a105.024 105.024 0 0 0 63.648 21.28c23.136 0 45.12-7.36 63.648-21.28l38.976-29.568a47.264 47.264 0 0 1 56.768 0l39.04 29.568a104.576 104.576 0 0 0 62.144 21.44c16.576 0 29.664-12.992 29.76-28.96a29.216 29.216 0 0 0-28.96-29.376c-10.016-0.16-19.744-3.488-27.744-9.536l-39.04-29.6a105.92 105.92 0 0 0-127.424 0l-39.04 29.568a46.784 46.784 0 0 1-56.736 0l-39.04-29.568a106.08 106.08 0 0 0-63.68-21.312c-23.232 0-45.216 7.36-63.552 21.312l-39.04 29.568a47.072 47.072 0 0 1-28.384 9.472c-10.272 0-19.04-3.264-27.264-9.408L399.36 283.84v-83.744l14.72 10.176a103.84 103.84 0 0 0 56.864 16.832c23.104 0 44.672-7.296 62.88-21.12l38.88-29.568a46.56 46.56 0 0 1 56.704 0l38.976 29.568a104.608 104.608 0 0 0 63.648 21.376c23.136 0 45.12-7.392 63.616-21.376l39.008-29.568a47.2 47.2 0 0 1 56.768 0l39.008 29.568a103.68 103.68 0 0 0 62.816 21.44 29.248 29.248 0 0 0 11.552-56.064 28.928 28.928 0 0 0-11.136-2.272 46.848 46.848 0 0 1-28.096-9.6l-38.976-29.536a105.92 105.92 0 0 0-127.392 0l-39.04 29.568a45.984 45.984 0 0 1-28.224 9.536c-10.24 0-20.256-3.36-28.48-9.504l-39.04-29.6a105.536 105.536 0 0 0-127.264 0l-39.04 29.568a47.008 47.008 0 0 1-28.352 9.472c-10.304 0-24.032-3.264-32.288-9.44l-48.352-33.728v-83.776l19.712 10.176c17.088 11.04 38.912 16.864 59.36 16.864 23.104 0 45.92-7.296 64.128-21.12l39.488-29.568a47.776 47.776 0 0 1 57.12 0l39.104 29.568a105.152 105.152 0 0 0 63.68 21.28c23.136 0 45.152-7.36 63.68-21.312l38.976-29.536a47.04 47.04 0 0 1 56.768 0l39.04 28.16c18.56 13.984 40.608 20 63.68 20h1.76c16.064 0 28.8-15.424 28.384-31.488-0.416-15.904-13.216-29.952-29.12-29.952h-0.064c-11.2 0-21.248-0.384-29.344-6.528l-39.04-28.032c-18.368-13.952-40.384-20.544-63.68-20.544a106.368 106.368 0 0 0-63.68 21.664l-39.04 29.76a46.72 46.72 0 0 1-28.256 9.6c-10.208 0-20.32-3.328-28.48-9.44l-39.04-29.568c-18.24-13.92-40.608-21.408-63.552-21.312a106.176 106.176 0 0 0-63.712 21.312l-39.008 29.568a47.04 47.04 0 0 1-28.384 9.472c-10.304 0-23.968-3.232-32.224-9.408l-48.256-33.728v-34.496H13.408z m68.832 61.44h255.68V773.12H211.104L82.24-5.12z"  horiz-adv-x="1024" />
      
      <glyph glyph-name="advance" unicode="&#58905;" d="M1120.8832-98.304c-12.8 0-25.173333 4.309333-35.114667 12.288l-532.309333 425.898667a56.106667 56.106667 0 0 0 0 87.594666L1085.768533 853.333333a56.106667 56.106667 0 0 0 91.178667-43.776V-42.24a56.106667 56.106667 0 0 0-56.106667-56.064zM678.2592 383.701333l386.474667-309.205333V692.906667l-386.474667-309.248zM588.488533-98.346667c-12.757333 0-25.088 4.352-35.072 12.330667L21.064533 339.882667a56.064 56.064 0 0 0 0 87.594666l532.352 425.813334a56.064 56.064 0 0 0 91.136-43.733334V-42.24a56.064 56.064 0 0 0-56.064-56.106667zM145.9072 383.658667l386.474667-309.205334V692.906667l-386.474667-309.248z"  horiz-adv-x="1194" />
      
      <glyph glyph-name="radar" unicode="&#58906;" d="M512 832C264.8064 832 64 631.1936 64 384c0-247.1936 200.8064-448 448-448 247.1936 0 448 200.8064 448 448 0 247.1936-200.8064 448-448 448z m-16-831.2064c-199.1936 8.0128-359.1936 168.8064-367.2064 367.2064h128c8.0128-128.7936 111.2064-231.1936 239.2064-239.2064v-128z m0 192c-92.8 8.0128-167.1936 82.4064-175.2064 175.2064h129.6128a62.7968 62.7968 0 0 1 45.5936-45.5936v-129.6128z m0 252.8c-22.4-5.5808-39.1936-23.1936-45.5936-45.5936H320.768c8.0128 92.8 82.4064 167.1936 175.2064 175.2064v-129.6128z m0 193.6128c-128.7936-8.0128-231.1936-111.2064-239.2064-239.2064h-128c8.0128 199.1936 168.8064 359.1936 367.2064 367.2064v-128z m32-64a195.2256 195.2256 0 0 0 49.6128-11.2128 94.9504 94.9504 0 0 0 35.2 55.1936A274.7392 274.7392 0 0 1 528 640V768A382.8736 382.8736 0 0 0 768 670.3872l-45.5936-46.3872c8.7808-5.6064 17.5872-12.8 23.9872-21.6064l44.8 44.8A382.3616 382.3616 0 0 0 896 400h-128a253.0048 253.0048 0 0 1-19.9936 84.8128 94.9504 94.9504 0 0 0-55.2192-35.2c5.632-16 9.6-32 11.2128-49.6128h-129.6128a63.4368 63.4368 0 0 1-10.3936 20.8128l47.2064 47.1808c-8.0128 6.4-15.2064 15.2064-21.6064 24.0128l-50.3808-50.4064c-4.0192 1.6128-7.2192 3.2-12.032 3.9936V575.232h0.8192z m0-253.5936a63.5648 63.5648 0 0 1 46.4128 46.3872h128.768c-7.9872-92.8-82.3808-167.1936-175.1808-175.2064v128.8192z m0-320.8192v128c128.7936 8.0128 231.1936 111.2064 239.2064 239.2064h128c-8.0128-199.1936-168.0128-359.1936-367.2064-367.2064z m143.2064 478.4128a64.1792 64.1792 0 0 0-64 64c0 35.2 28.8 64 64 64s64-28.8 64-64-28.8-64-64-64z"  horiz-adv-x="1024" />
      
      <glyph glyph-name="videoPlay-sharp" unicode="&#58903;" d="M955.733333 384L85.333333-118.510933V886.442667L955.733333 384z"  horiz-adv-x="1024" />
      
      <glyph glyph-name="copy" unicode="&#58902;" d="M864.119467-94.890667a138.5472 138.5472 0 0 1 138.581333 138.581334V547.601067a138.581333 138.581333 0 0 1-138.513067 138.581333h-63.146666V756.394667A131.447467 131.447467 0 0 1 678.4 887.534933l-8.635733 0.238934h-460.8A188.962133 188.962133 0 0 1 20.036267 698.811733v-460.8a131.413333 131.413333 0 0 1 131.413333-131.310933h70.144v-63.010133a138.5472 138.5472 0 0 1 138.581333-138.581334h503.944534zM221.5936 182.272H151.4496a55.842133 55.842133 0 0 0-55.808 55.876267V698.811733a113.322667 113.322667 0 0 0 113.3568 113.322667h460.8c30.72 0 55.7056-24.951467 55.7056-55.842133V686.08h-365.226667a138.581333 138.581333 0 0 1-138.615466-138.478933v-365.431467l-0.068267 0.068267z m642.525867-201.454933H360.1408a62.8736 62.8736 0 0 0-63.010133 62.907733V547.601067c0 34.816 28.2624 63.010133 63.010133 63.010133h503.876267c34.816 0 63.010133-28.2624 63.010133-63.010133v-503.808c0-34.816-28.194133-63.010133-62.976-63.010134h0.068267z"  horiz-adv-x="1024" />
      
      <glyph glyph-name="close" unicode="&#58901;" d="M917.12 75.84a92.736 92.736 0 1 0-127.552-134.272L492.8 243.648l-296.704-295.36A94.976 94.976 0 0 0 61.824 82.56l295.36 296.768L61.76 674.688a94.976 94.976 0 0 0 134.4 134.208L492.8 500.032l296.768 296.768a92.608 92.608 0 0 0 127.488-134.272L621.696 367.104l295.36-291.328v0.064z"  horiz-adv-x="1024" />
      
      <glyph glyph-name="rules_right" unicode="&#58900;" d="M433.948444 88.177778L110.250667 406.414222 0 298.894222 433.948444-128 1365.333333 788.366222 1255.879111 896 433.948444 88.177778z"  horiz-adv-x="1365" />
      
      <glyph glyph-name="show" unicode="&#58896;" d="M960-128c-161.152 0-311.296 25.088-446.336 74.24A1037.44 1037.44 0 0 0 218.88 111.104C70.016 230.4 8.96 351.104 6.4 356.096a60.16 60.16 0 0 0-6.4 26.88v2.048c0 9.344 2.176 18.432 6.4 26.88 2.56 5.12 63.616 125.696 212.48 245.12A1037.44 1037.44 0 0 0 513.664 821.76C648.704 870.912 798.976 896 960 896c161.152 0 311.296-24.96 446.336-74.24 107.52-39.04 207.36-94.72 294.784-164.736 148.864-119.424 209.92-240 212.48-245.12 4.224-8.448 6.4-17.536 6.4-26.88v-2.048a60.544 60.544 0 0 0-6.4-26.88c-2.56-5.12-63.616-125.696-212.48-244.992a1037.44 1037.44 0 0 0-294.784-164.864C1271.296-102.912 1121.024-128 960-128zM146.304 384c24.064-37.248 77.184-109.184 167.04-180.096C484.608 68.48 702.208-0.256 960-0.256c257.664 0 475.392 68.736 646.656 204.16A765.952 765.952 0 0 1 1773.696 384a765.952 765.952 0 0 1-167.04 180.096C1435.392 699.52 1217.792 768.256 960 768.256c-257.664 0-475.392-68.736-646.656-204.16A765.184 765.184 0 0 1 146.304 384zM960 65.664c-90.88 0-178.048 33.792-242.304 93.696a309.12 309.12 0 0 0-100.608 225.664c0 84.736 36.224 165.888 100.608 225.792A356.48 356.48 0 0 0 960 704.384c90.88 0 178.048-33.664 242.304-93.568 64.384-59.904 100.48-141.056 100.608-225.792 0-84.736-36.224-165.888-100.608-225.792a356.48 356.48 0 0 0-242.304-93.568z m0 510.976a213.76 213.76 0 0 1-145.408-56.192c-38.528-35.84-60.16-84.608-60.16-135.424s21.76-99.456 60.16-135.424c38.656-35.84 90.88-56.064 145.408-56.192a213.76 213.76 0 0 1 145.408 56.32c38.4 35.84 60.16 84.48 60.16 135.296 0 50.816-21.76 99.456-60.16 135.424A213.76 213.76 0 0 1 960 576.64z"  horiz-adv-x="1920" />
      
      <glyph glyph-name="success" unicode="&#58898;" d="M518.5024 894.1568C235.3408 894.1568 5.8112 666.0608 5.8112 384.7168c0-281.3696 229.5296-509.44 512.6656-509.44 283.1616 0 512.6912 228.0704 512.6912 509.44 0 281.344-229.5296 509.44-512.6656 509.44zM769.28 510.72L482.1504 170.624a45.2864 45.2864 0 0 0-63.6416-5.504l-4.0448 3.328a46.08 46.08 0 0 0-6.7072 6.9632l-126.848 122.624a44.8 44.8 0 0 0-5.5552 63.2064l3.3792 4.0192a45.1328 45.1328 0 0 0 30.6688 15.872 45.4144 45.4144 0 0 0 32.9728-10.3424l101.2992-97.8944 252.3904 298.88a45.0816 45.0816 0 0 0 30.6432 15.872 45.4144 45.4144 0 0 0 32.9728-10.3168l4.0448-3.3536a44.8 44.8 0 0 0 5.5808-63.2576z"  horiz-adv-x="1049" />
      
      <glyph glyph-name="hidden" unicode="&#58899;" d="M1274.209591 404.163621c-1.704628 3.664951-42.360011 91.538535-141.484142 178.474574a676.737402 676.737402 0 0 1-196.287939 120.005827c-89.919138 35.882424-189.980815 54.121946-297.201929 54.121945a814.812287 814.812287 0 0 1-261.149043-40.911077L214.783155 882.482298a44.746491 44.746491 0 0 1-64.094021 0 46.792045 46.792045 0 0 1 0-65.202029L287.229854 677.926912a672.475831 672.475831 0 0 1-141.484142-95.288717C46.621582 495.702156 5.966199 407.913803 4.261571 404.163621A47.218202 47.218202 0 0 1 0 384.560397v-1.448934c0-6.818513 1.448934-13.466563 4.261571-19.603225 1.704628-3.664951 42.360011-91.538535 141.484141-178.474574A676.737402 676.737402 0 0 1 342.033651 64.942606c89.919138-35.882424 189.895583-54.121946 297.20193-54.121946 93.584089 0 181.542905 13.89272 262.171819 41.166772l162.365838-165.348937a44.746491 44.746491 0 0 1 64.094021 0 46.792045 46.792045 0 0 1 0 65.202029L992.093621 90.171104a672.475831 672.475831 0 0 1 140.631828 94.86256c99.038899 86.936039 139.779514 174.724392 141.484142 178.474574a47.303433 47.303433 0 0 1 4.176339 19.603225V384.560397a47.303433 47.303433 0 0 1-4.26157 19.603224zM639.235581 103.978592c-171.656061 0-316.464228 50.030838-430.589087 148.643581a543.520706 543.520706 0 0 0-111.226991 131.256372A543.520706 543.520706 0 0 0 208.646494 514.964455a583.664701 583.664701 0 0 0 147.194646 92.987469l93.157932-94.947791A234.38638 234.38638 0 0 1 410.900631 384.560397c0-128.273273 102.448156-232.681751 228.33495-232.681752 46.621582 0 90.00437 14.318877 126.142488 38.865523l62.730318-63.923558a750.633035 750.633035 0 0 0-188.872806-22.842018zM762.650664 324.046095L579.914519 510.276727c17.898596 8.864067 38.098441 13.807489 59.321062 13.807489 75.51503 0 136.966877-62.559856 136.966877-139.523819 0-21.648778-4.85819-42.189548-13.637026-60.514302z m-64.094021-65.287261c-17.898596-8.864067-38.098441-13.807489-59.321062-13.807488-75.51503 0-136.966877 62.559856-136.966877 139.523819 0 21.648778 4.85819 42.189548 13.637025 60.514302l182.650914-186.230633z m371.268025-6.221893a583.664701 583.664701 0 0 0-146.171869-92.561312L829.47209 256.031429A234.38638 234.38638 0 0 1 867.57053 384.560397c0 128.273273-102.448156 232.681751-228.334949 232.681751-46.621582 0-90.00437-14.318877-126.142488-38.865523l-61.537079 62.730318A751.314886 751.314886 0 0 0 639.235581 663.693267c171.656061 0 316.464228-50.030838 430.589087-148.643581a543.520706 543.520706 0 0 0 111.312222-131.256372 543.520706 543.520706 0 0 0-111.312222-131.171141z"  horiz-adv-x="1280" />
      
      <glyph glyph-name="false" unicode="&#58897;" d="M0.021487 448.151066l1023.957021 0 0-127.921461L0.021487 320.229604 0.021487 448.151066z"  horiz-adv-x="1024" />
      
      <glyph glyph-name="tick" unicode="&#58895;" d="M1135.616 896h-98.2528a43.3152 43.3152 0 0 1-35.2768-18.9952l-579.4304-814.08-277.8624 390.4512a46.1824 46.1824 0 0 1-15.6672 13.9776 41.3696 41.3696 0 0 1-19.6096 5.0176H11.264c-9.4208 0-14.592-12.032-8.8576-20.1216L387.3792-88.576c17.9712-25.2416 52.5312-25.2416 70.656 0L1144.4736 876.032c5.7344 7.9872 0.512 19.968-8.8576 19.968z"  horiz-adv-x="1177" />
      
      <glyph glyph-name="plus-circle" unicode="&#58894;" d="M505.002667 832.853333c-244.053333 0-441.890133-197.8368-441.890134-441.821866 0-244.053333 197.870933-441.856 441.890134-441.856 243.985067 0 441.856 197.8368 441.856 441.856 0 243.985067-197.870933 441.856-441.856 441.856z m189.371733-465.5104a7.918933 7.918933 0 0 0-7.918933-7.8848H536.576v-149.9136a7.918933 7.918933 0 0 0-7.850667-7.8848H481.28a7.918933 7.918933 0 0 0-7.8848 7.850667v149.947733H323.515733a7.918933 7.918933 0 0 0-7.8848 7.8848V414.72c0 4.334933 3.549867 7.8848 7.850667 7.8848h149.947733V572.484267c0 4.369067 3.549867 7.918933 7.8848 7.918933h47.342934c4.334933 0 7.8848-3.549867 7.8848-7.918933v-149.9136h149.9136c4.334933 0 7.918933-3.549867 7.918933-7.850667v-47.377067z"  horiz-adv-x="1024" />
      
      <glyph glyph-name="minus-circle" unicode="&#58893;" d="M505.002667 832.853333c-244.053333 0-441.890133-197.8368-441.890134-441.821866 0-244.053333 197.870933-441.856 441.890134-441.856 243.985067 0 441.856 197.8368 441.856 441.856 0 243.985067-197.870933 441.856-441.856 441.856z m189.371733-465.5104a7.918933 7.918933 0 0 0-7.918933-7.8848H323.515733a7.918933 7.918933 0 0 0-7.8848 7.8848V414.72c0 4.334933 3.549867 7.8848 7.850667 7.8848h362.973867c4.334933 0 7.918933-3.549867 7.918933-7.850667v-47.377066z"  horiz-adv-x="1024" />
      
      <glyph glyph-name="clean_modes" unicode="&#58890;" d="M409.6 793.6a68.2752 68.2752 0 0 0 68.2496-68.2752v-204.8A68.2752 68.2752 0 0 0 409.6 452.2752H204.8a68.2752 68.2752 0 0 0-68.2752 68.2496v204.8A68.2752 68.2752 0 0 0 204.8 793.6h204.8z m0-52.5056H204.8a15.744 15.744 0 0 1-15.6928-14.1568l-0.0768-1.6128v-204.8a15.744 15.744 0 0 1 14.1568-15.6672l1.6128-0.0768h204.8a15.7696 15.7696 0 0 1 15.6672 14.1312l0.0768 1.6128v204.8a15.744 15.744 0 0 1-14.1312 15.6928L409.6 741.0944z m409.6-391.2192A68.2752 68.2752 0 0 0 887.4496 281.6v-204.8A68.2752 68.2752 0 0 0 819.2 8.5248h-204.8A68.2752 68.2752 0 0 0 546.1248 76.8v204.8A68.2752 68.2752 0 0 0 614.4 349.8752h204.8z m0-52.5312h-204.8a15.7696 15.7696 0 0 1-15.6928-14.1312l-0.0768-1.6128v-204.8a15.7696 15.7696 0 0 1 14.1568-15.6672l1.6128-0.0768h204.8a15.7696 15.7696 0 0 1 15.6672 14.1312l0.0768 1.6128v204.8a15.744 15.744 0 0 1-14.1312 15.6672L819.2 297.344zM432.3072 69.376c-101.376 9.088-178.944 76.6976-182.528 188.544h56.064L221.2096 384l-84.6848-126.08h56.064c2.3296-144.384 103.7056-237.952 233.8048-250.9568 16.6912-1.28 32.2048 13.0048 32.2048 31.232a31.104 31.104 0 0 1-26.2912 31.1552z m140.032 661.76c90.624-9.1392 163.3792-63.7184 178.8928-157.3376h-52.48l84.6848-126.1056 84.7616 126.1056H809.728c-15.5136 126.08-110.9248 208.0512-231.424 219.7248-16.7168 1.3312-32.1792-12.9792-32.1792-31.1808 1.1264-15.6416 11.8528-29.9008 26.1888-31.232z"  horiz-adv-x="1024" />
      
      <glyph glyph-name="ota_upgrades" unicode="&#58891;" d="M576 358.4v-390.417067c0-19.182933-12.8-31.982933-32.017067-31.982933-19.182933 0-31.982933 12.8-31.982933 32.017067V358.4l-102.4-121.617067c-12.8-12.8-32.017067-12.8-44.817067-6.382933-12.765867 12.8-12.765867 32.017067-6.382933 44.817067l160.017067 192c12.765867 12.765867 38.365867 12.765867 51.2 0l159.982933-192.034134c12.8-12.8 6.417067-31.982933-6.417067-44.782933-12.8-12.8-31.982933-6.417067-44.782933 6.417067l-102.4 121.582933z m192-262.417067c0 19.217067 12.8 32.017067 32.017067 32.017067H819.2c76.8 0 140.8 64 140.8 134.417067 0 51.2-25.6 95.982933-70.417067 121.582933l-31.982933 19.217067V435.2C844.8 588.8 716.8 704 563.2 704c-115.2 0-217.6-64-268.8-166.4l-12.8-32.017067H243.2c-102.4-12.765867-179.2-89.565867-179.2-191.965866 0-102.4 83.217067-185.617067 192-185.617067h32.017067c19.182933 0 31.982933-12.8 31.982933-32.017067 0-19.182933-12.8-31.982933-32.017067-31.982933H256C115.2 64 0 179.2 0 313.617067c0 134.382933 102.4 243.2 236.817067 249.582933 57.582933 121.617067 185.582933 204.8 326.382933 204.8 192 0 345.6-147.217067 358.4-326.417067 64-31.982933 102.4-102.4 102.4-172.782933 0-108.817067-89.6-198.417067-204.8-198.417067h-19.217067c-19.182933-6.382933-31.982933 6.417067-31.982933 25.6zM576 358.4v-390.417067c0-19.182933-12.8-31.982933-32.017067-31.982933-19.182933 0-31.982933 12.8-31.982933 32.017067V358.4l-102.4-121.617067c-12.8-12.8-32.017067-12.8-44.817067-6.382933-12.765867 12.8-12.765867 32.017067-6.382933 44.817067l160.017067 192c12.765867 12.765867 38.365867 12.765867 51.2 0l159.982933-192.034134c12.8-12.8 6.417067-31.982933-6.417067-44.782933-12.8-12.8-31.982933-6.417067-44.782933 6.417067l-102.4 121.582933z m192-262.417067c0 19.217067 12.8 32.017067 32.017067 32.017067H819.2c76.8 0 140.8 64 140.8 134.417067 0 51.2-25.6 95.982933-70.417067 121.582933l-31.982933 19.217067V435.2C844.8 588.8 716.8 704 563.2 704c-115.2 0-217.6-64-268.8-166.4l-12.8-32.017067H243.2c-102.4-12.765867-179.2-89.565867-179.2-191.965866 0-102.4 83.217067-185.617067 192-185.617067h32.017067c19.182933 0 31.982933-12.8 31.982933-32.017067 0-19.182933-12.8-31.982933-32.017067-31.982933H256C115.2 64 0 179.2 0 313.617067c0 134.382933 102.4 243.2 236.817067 249.582933 57.582933 121.617067 185.582933 204.8 326.382933 204.8 192 0 345.6-147.217067 358.4-326.417067 64-31.982933 102.4-102.4 102.4-172.782933 0-108.817067-89.6-198.417067-204.8-198.417067h-19.217067c-19.182933-6.382933-31.982933 6.417067-31.982933 25.6z"  horiz-adv-x="1024" />
      
      <glyph glyph-name="component_alert" unicode="&#58892;" d="M915.217067 89.6l-83.217067 147.217067V512c0 96.017067-44.817067 185.617067-115.2 249.617067-32.017067 25.6-70.417067 44.782933-108.817067 57.582933C601.6 864.017067 563.2 896 512 896c-51.2 0-89.6-32.017067-102.4-76.8C339.182933 793.6 275.182933 742.4 236.782933 678.4c-12.8-12.8-6.382933-32.017067 6.417067-44.817067 12.8-6.382933 32.017067-6.382933 44.817067 12.8 38.365867 57.617067 89.565867 96.017067 159.982933 115.2 12.8 6.417067 25.6 12.834133 25.6 32.017067-6.417067 19.217067 12.8 38.4 38.4 38.4s44.817067-19.217067 44.817067-44.817067c0-12.765867 12.8-25.6 25.6-31.982933 38.4-12.8 70.382933-25.6 102.4-51.2 57.582933-51.2 89.6-121.617067 89.6-198.417067V230.4c0-6.417067 0-12.8 6.382933-12.8l57.617067-108.817067H185.617067l57.582933 108.817067c0 6.417067 6.417067 12.8 6.417067 12.8v102.4H307.2c12.8 0 25.6 6.417067 32.017067 19.217067l51.2 115.165866 83.182933-134.382933c6.417067-12.8 19.217067-19.217067 25.6-12.8 12.8 0 19.217067 6.417067 25.6 19.217067l153.6 287.982933c6.417067 12.8 0 32.017067-12.8 44.817067-12.8 6.382933-32.017067 0-44.817067-12.8l-128-236.817067-76.8 121.617067c-6.382933 12.765867-19.182933 19.182933-31.982933 12.765866-12.8 0-19.217067-6.382933-25.6-19.182933l-70.417067-140.8H217.634133c-19.217067 0-32.017067-12.8-32.017066-32.017067v-121.582933L102.4 95.982933c-6.417067-12.8-6.417067-19.182933 0-31.982933s19.217067-12.8 25.6-12.8h172.817067c19.182933-102.4 102.4-179.2 204.8-179.2s185.582933 76.8 198.382933 172.817067h185.617067c12.8 0 19.182933 6.382933 25.6 12.8 6.382933 12.8 6.382933 19.182933 0 31.982933z m-409.6-153.6c-64.034133 0-121.617067 44.817067-134.417067 108.817067h268.8c-12.8-64-70.417067-108.817067-134.417067-108.817067z"  horiz-adv-x="1024" />
      
      <glyph glyph-name="arrowBottom" unicode="&#58881;" d="M129.3312 766.6688a106.7008 106.7008 0 0 0 150.8352 0L844.8 202.0352l564.5312 564.6336a106.7008 106.7008 0 1 0 150.8352-150.8352l-640-640a106.7008 106.7008 0 0 0-150.8352 0l-640 640a106.7008 106.7008 0 0 0 0 150.8352z"  horiz-adv-x="1638" />
      
      <glyph glyph-name="videoPlay" unicode="&#58882;" d="M813.056 467.698526a107.789474 107.789474 0 0 0 0-167.397052L344.117895-80.195368c-70.440421-57.155368-175.696842-7.006316-175.696842 83.698526V764.496842c0 90.731789 105.256421 140.853895 175.696842 83.698526l468.938105-380.496842z"  horiz-adv-x="1024" />
      
      <glyph glyph-name="arrowLeft" unicode="&#58883;" d="M789.412571-111.908571c-19.797333-18.968381-52.46781-18.968381-72.265142-4.973715l-482.742858 461.775238c-14.628571 18.090667-18.919619 40.326095-11.215238 57.58781 0.877714 4.144762 8.630857 12.385524 14.628572 19.748571L714.61181 877.470476A47.981714 47.981714 0 0 0 785.950476 882.346667a46.713905 46.713905 0 0 0 0-68.266667l-445.683809-431.34781 449.145904-424.71619c19.797333-19.748571 20.675048-50.224762 0-69.973333z"  horiz-adv-x="1024" />
      
      <glyph glyph-name="arrowRight" unicode="&#58884;" d="M234.586941-111.908571c19.797333-18.968381 52.46781-18.968381 72.265143-4.973715l482.742857 461.775238c14.628571 18.090667 18.919619 40.326095 11.215238 57.58781-0.877714 4.144762-8.630857 12.385524-14.628571 19.748571L309.387703 877.470476A47.981714 47.981714 0 0 1 238.049036 882.346667a46.713905 46.713905 0 0 1 0-68.266667l445.68381-431.34781-449.145905-424.71619c-19.797333-19.748571-20.626286-50.224762 0-69.973333z"  horiz-adv-x="1024" />
      
      <glyph glyph-name="linkedin" unicode="&#58885;" d="M748.307692 155.963077h-97.910154v153.245538c0 36.548923-0.669538 83.534769-50.884923 83.53477-50.963692 0-58.761846-39.778462-58.761846-80.896v-155.844923h-97.831384v315.076923h93.892923v-43.08677h1.339077c13.075692 24.812308 45.016615 50.924308 92.672 50.924308C729.993846 478.916923 748.307692 413.696 748.307692 328.861538v-172.859076zM332.524308 514.126769a56.792615 56.792615 0 1 0-0.07877 113.585231 56.792615 56.792615 0 0 0 0.07877-113.585231z m48.994461-358.163692h-98.067692v315.116308h98.067692v-315.076923zM512 864.492308C250.958769 864.492308 39.384615 652.839385 39.384615 391.876923c0-261.041231 211.574154-472.615385 472.615385-472.615385s472.615385 211.574154 472.615385 472.615385c0 261.001846-211.574154 472.615385-472.615385 472.615385z"  horiz-adv-x="1024" />
      
      <glyph glyph-name="facebook" unicode="&#58886;" d="M626.845538 549.691077h-44.504615c-34.855385 0-41.629538-16.580923-41.629538-40.920615v-53.602462h83.219692l-10.830769-84.046769h-72.388923v-215.591385h-86.764308v215.591385H381.400615v84.007384h72.546462V517.12c0 71.916308 43.953231 111.064615 108.071385 111.064615 30.72 0 57.107692-2.284308 64.827076-3.308307v-75.145846zM504.123077 864.492308C243.121231 864.492308 31.507692 652.878769 31.507692 391.876923c0-261.001846 211.613538-472.615385 472.615385-472.615385 261.041231 0 472.615385 211.613538 472.615385 472.615385 0 261.041231-211.574154 472.615385-472.615385 472.615385z"  horiz-adv-x="1024" />
      
      <glyph glyph-name="instagram" unicode="&#58887;" d="M536.182154 300.622769a90.781538 90.781538 0 0 1 90.860308 90.702769 90.781538 90.781538 0 0 1-90.860308 90.663385 90.781538 90.781538 0 0 1-90.899692-90.663385 90.781538 90.781538 0 0 1 90.899692-90.702769z m104.644923 183.532308h63.881846c7.286154 0 13.233231 5.907692 13.233231 13.193846v63.803077a13.233231 13.233231 0 0 1-13.233231 13.154462h-63.881846a13.233231 13.233231 0 0 1-13.233231-13.193847v-63.763692c0-7.246769 5.907692-13.154462 13.233231-13.154461z m131.111385-272.541539c0-30.956308-25.166769-56.083692-56.201847-56.083692H355.485538A56.123077 56.123077 0 0 0 299.323077 211.613538V572.100923c0 30.956308 25.166769 56.044308 56.162461 56.044308h360.251077c31.035077 0 56.201846-25.088 56.201847-56.044308v-360.487385zM535.630769 864.452923c-261.041231 0-472.615385-211.574154-472.615384-472.615385 0-261.001846 211.574154-472.615385 472.615384-472.615384 261.001846 0 472.615385 211.613538 472.615385 472.615384 0 261.041231-211.613538 472.615385-472.615385 472.615385z m144.305231-473.127385a143.753846 143.753846 0 0 0-287.507692 0c0 13.115077 1.732923 25.836308 5.12 37.927385H353.28v-205.548308c0-7.286154 5.907692-13.193846 13.233231-13.193846h339.298461c7.325538 0 13.233231 5.907692 13.233231 13.193846V429.292308h-44.228923c3.347692-12.091077 5.12-24.812308 5.12-37.927385z"  horiz-adv-x="1063" />
      
      <glyph glyph-name="twitter" unicode="&#58888;" d="M715.657846 488.211692c0.196923-4.135385 0.315077-8.310154 0.315077-12.524307 0-128.118154-97.555692-275.889231-275.889231-275.889231A274.510769 274.510769 0 0 0 291.446154 243.396923a194.481231 194.481231 0 0 1 143.556923 40.172308 97.043692 97.043692 0 0 0-90.584615 67.347692 97.831385 97.831385 0 0 1 43.795692 1.654154 96.964923 96.964923 0 0 0-77.784616 95.035077v1.260308a96.492308 96.492308 0 0 1 43.913847-12.130462 96.964923 96.964923 0 0 0-30.011077 129.457231 275.298462 275.298462 0 0 1 199.876923-101.297231 96.964923 96.964923 0 0 0 165.218461 88.418462 194.008615 194.008615 0 0 1 61.558154 23.512615 97.437538 97.437538 0 0 0-42.614154-53.641846 194.56 194.56 0 0 1 55.689846 15.281231 197.316923 197.316923 0 0 0-48.403692-50.176zM527.753846 864.492308c-261.041231 0-472.615385-211.574154-472.615384-472.615385 0-261.001846 211.574154-472.615385 472.615384-472.615385s472.615385 211.613538 472.615385 472.615385c0 261.041231-211.574154 472.615385-472.615385 472.615385z"  horiz-adv-x="1063" />
      
      <glyph glyph-name="youtube" unicode="&#58889;" d="M756.184615 373.996308c0-38.242462-4.726154-76.484923-4.726153-76.484923s-4.608-32.571077-18.786462-46.907077c-17.959385-18.825846-38.124308-18.904615-47.379692-20.007385-66.126769-4.804923-165.415385-4.923077-165.415385-4.923077s-122.88 1.102769-160.689231 4.726154c-10.515692 1.969231-34.146462 1.378462-52.105846 20.204308-14.178462 14.336-18.786462 46.867692-18.786461 46.867692s-4.726154 38.281846-4.726154 76.524308v35.84c0 38.281846 4.726154 76.484923 4.726154 76.484923s4.608 32.610462 18.786461 46.946461c17.959385 18.825846 38.084923 18.904615 47.340308 20.007385 66.166154 4.765538 165.336615 4.765538 165.336615 4.765538h0.196923s99.249231 0 165.376-4.765538c9.216-1.102769 29.380923-1.181538 47.340308-20.007385 14.178462-14.336 18.786462-46.907077 18.786462-46.907077s4.726154-38.242462 4.726153-76.484923v-35.84zM519.876923 864.492308c-261.041231 0-472.615385-211.574154-472.615385-472.615385 0-261.001846 211.574154-472.615385 472.615385-472.615385s472.615385 211.613538 472.615385 472.615385c0 261.041231-211.574154 472.615385-472.615385 472.615385z m-48.836923-533.897846l127.724308 66.166153-127.724308 66.63877v-132.804923z"  horiz-adv-x="1024" />
      
    </font>
</defs>
</svg>
